<?xml version="1.0" encoding="utf-8"?>
<svg xmlns="http://www.w3.org/2000/svg" xmlns:cc="http://creativecommons.org/ns#" xmlns:dc="http://purl.org/dc/elements/1.1/" xmlns:inkscape="http://www.inkscape.org/namespaces/inkscape" xmlns:rdf="http://www.w3.org/1999/02/22-rdf-syntax-ns#" xmlns:sodipodi="http://sodipodi.sourceforge.net/DTD/sodipodi-0.dtd" xmlns:svg="http://www.w3.org/2000/svg" width="230mm" height="271mm" style="shape-rendering:geometricPrecision; text-rendering:geometricPrecision; image-rendering:optimizeQuality; fill-rule:evenodd; clip-rule:evenodd" viewBox="0 0 230 271" version="1.1" id="svg3389">
 <defs id="defs3391">
  <font id="FontID0" font-variant="normal" style="fill-rule:nonzero" font-weight="400">
	
   
   <glyph horiz-adv-x="277" id="glyph3400" unicode=""/>
   <glyph unicode="E" horiz-adv-x="667" id="glyph3402">
        <path d="M79.1722 0l0 715.83 517.488 0 0 -84.4909 -422.832 0 0 -219.171 396.01 0 0 -84.0049 -396.01 0 0 -243.659 439.504 0 0 -84.5044 -534.159 0z" id="path3404"/>
      </glyph>
   <glyph unicode="N" horiz-adv-x="722" id="glyph3406">
        <path d="M76.1619 0l0 715.83 97.1665 0 376.004 -561.995 0 561.995 90.8355 0 0 -715.83 -97.1665 0 -376.004 562.494 0 -562.494 -90.8355 0z" id="path3408"/>
      </glyph>
   <glyph unicode="I" horiz-adv-x="277" id="glyph3410">
        <path d="M93.3328 0l0 715.83 94.6692 0 0 -715.83 -94.6692 0z" id="path3412"/>
      </glyph>
   <glyph unicode="A" horiz-adv-x="667" id="glyph3414">
        <path d="M-1.4984 0l275.004 715.83 101.999 0 292.998 -715.83 -108.006 0 -83.4919 216.836 -299.343 0 -78.4973 -216.836 -100.663 0zm206.496 293.997l242.835 0 -74.839 198.167c-22.665,60.1655 -39.6604,109.667 -50.6621,148.504 -9.16589,-46.0049 -22.0035,-91.4969 -38.6614,-136.84l-78.6728 -209.83z" id="path3416"/>
      </glyph>
   <glyph unicode="S" horiz-adv-x="667" id="glyph3418">
        <path d="M45.006 229.998l89.3236 7.82948c4.17122,-35.8266 13.9986,-65.1602 29.509,-88.1626 15.497,-23.0025 39.4984,-41.4962 71.9907,-55.6703 32.5058,-14.1606 69.1694,-21.1666 109.842,-21.1666 36.1641,0 67.995,5.34564 95.6681,16.0099 27.6597,10.8263 48.3268,25.4998 61.8259,44.1691 13.4991,18.8312 20.3296,39.1609 20.3296,61.3264 0,22.503 -6.49307,41.9957 -19.6682,58.8291 -12.9996,16.8334 -34.4902,30.8319 -64.3232,42.1712 -19.3307,7.5055 -61.6639,19.1687 -127.499,35.0032 -65.6731,15.8344 -111.84,30.67 -138.177,44.6685 -34.1662,17.8323 -59.666,40.1598 -76.4994,66.6586 -16.6579,26.4987 -25.0003,56.1698 -25.0003,89.1751 0,35.9886 10.1783,69.8309 30.67,101.162 20.5051,31.4934 50.5001,55.3328 89.8365,71.6667 39.4984,16.1719 83.168,24.3389 131.333,24.3389 53.1595,0 99.8259,-8.50443 140.499,-25.6753 40.4973,-16.9954 71.6667,-42.1712 93.4948,-75.325 21.6661,-33.1673 33.5048,-70.8433 35.1787,-112.839l-90.8355 -6.83055c-5.00817,45.168 -21.5041,79.4962 -49.6767,102.499 -28.1591,23.1645 -69.6554,34.6657 -124.664,34.6657 -57.3307,0 -99.0024,-10.5023 -125.326,-31.5069 -26.1748,-20.9911 -39.3364,-46.3289 -39.3364,-75.8245 0,-25.8373 9.32788,-47.0039 27.8351,-63.4998 18.3318,-16.6714 65.8351,-33.6668 142.834,-50.9996 76.9989,-17.5083 129.834,-32.6678 158.493,-45.6675 41.6717,-19.3307 72.5037,-43.6696 92.3339,-73.0031 19.8302,-29.4955 29.671,-63.4998 29.671,-101.837 0,-38.162 -10.8398,-74.0021 -32.6678,-107.669 -21.828,-33.6668 -53.173,-59.828 -93.9942,-78.6593 -40.8348,-18.6693 -86.8397,-27.9971 -137.839,-27.9971 -64.8362,0 -119.17,9.32788 -162.84,28.3346 -43.8316,18.8312 -78.1598,47.1659 -103.16,85.1658 -24.8383,37.8245 -38,80.8326 -39.1609,128.66z" id="path3420"/>
      </glyph>
   <glyph unicode="l" horiz-adv-x="222" id="glyph3422">
        <path d="M63.9992 0l0 715.83 87.8387 0 0 -715.83 -87.8387 0z" id="path3424"/>
      </glyph>
   <glyph unicode="e" horiz-adv-x="556" id="glyph3426">
        <path d="M420.835 166.997l90.8355 -11.1638c-14.336,-53.173 -40.8348,-94.3317 -79.5097,-123.665 -38.8234,-29.1716 -88.3246,-43.8316 -148.49,-43.8316 -75.838,0 -136.003,23.3264 -180.335,69.9928 -44.5065,46.6664 -66.6721,112.164 -66.6721,196.506 0,87.3257 22.503,154.997 67.3335,203.161 45.006,48.1648 103.174,72.3417 174.84,72.3417 69.3314,0 126.001,-23.6774 169.832,-70.8433 43.9936,-47.1659 65.9971,-113.662 65.9971,-199.166 0,-5.33215 -0.161989,-13.1616 -0.499467,-23.5019l-386.668 0c3.17229,-56.9932 19.3307,-100.663 48.3403,-130.833 28.9961,-30.3325 64.9982,-45.492 108.33,-45.492 32.1684,0 59.666,8.49094 82.493,25.4998 22.8405,16.8334 40.8348,43.8316 54.1719,80.9946zm-288.503 142.173l289.502 0c-3.83375,43.4941 -14.9975,76.3239 -33.1673,97.99 -27.9971,33.8422 -64.3367,50.8376 -108.83,50.8376 -40.3353,0 -74.3396,-13.4991 -101.837,-40.4973 -27.4977,-26.9982 -42.6707,-63.1623 -45.6675,-108.33z" id="path3428"/>
      </glyph>
   <glyph unicode="m" horiz-adv-x="833" id="glyph3430">
        <path d="M65.9971 0l0 518.501 78.4973 0 0 -72.6657c16.3339,25.3378 38,45.8295 65.0117,61.1644 26.9982,15.497 57.8302,23.3399 92.3339,23.3399 38.324,0 69.8309,-8.00497 94.3317,-24.0014 24.6629,-16.0099 41.9957,-38.1755 51.9985,-66.8341 41.1588,60.503 94.4937,90.8355 160.167,90.8355 51.4991,0 90.9974,-14.336 118.657,-42.8327 27.6732,-28.5101 41.5097,-72.3417 41.5097,-131.508l0 -355.998 -87.3392 0 0 326.665c0,35.1652 -2.83481,60.503 -8.50443,75.9999 -5.83161,15.335 -16.1584,27.8351 -30.9939,37.3385 -14.9975,9.32788 -32.6678,14.1606 -52.8355,14.1606 -36.5016,0 -66.6586,-12.1627 -90.8355,-36.5016 -24.0014,-24.1634 -36.1641,-63.0003 -36.1641,-116.335l0 -301.327 -87.8252 0 0 336.83c0,39.1744 -7.16802,68.5079 -21.5041,88.0006 -14.336,19.5062 -37.6625,29.3335 -70.3303,29.3335 -24.6764,0 -47.5033,-6.49307 -68.5079,-19.6682 -20.9911,-12.9996 -36.3261,-31.9929 -45.6675,-56.9932 -9.48987,-25.1623 -14.1606,-61.3399 -14.1606,-108.506l0 -268.997 -87.8387 0z" id="path3432"/>
      </glyph>
   <glyph unicode="h" horiz-adv-x="556" id="glyph3434">
        <path d="M65.9971 0l0 715.83 87.8387 0 0 -256.834c40.9968,47.5033 92.8333,71.3428 155.334,71.3428 38.324,0 71.6667,-7.66749 100.001,-22.8405 28.3346,-14.9975 48.6643,-36.0021 60.827,-62.6628 12.1627,-26.6742 18.3318,-65.4976 18.3318,-116.173l0 -328.663 -88.0006 0 0 328.663c0,43.8316 -9.48987,75.838 -28.4966,95.8436 -18.9932,19.9922 -46.0049,30.157 -80.8326,30.157 -25.9993,0 -50.5001,-6.83055 -73.5026,-20.3296 -23.0025,-13.4991 -39.3364,-31.8309 -49.0017,-54.9953 -9.82735,-23.0025 -14.66,-55.0088 -14.66,-95.6681l0 -283.67 -87.8387 0z" id="path3436"/>
      </glyph>
   <glyph unicode="o" horiz-adv-x="556" id="glyph3438">
        <path d="M33.1673 259.331c0,96.0056 26.6607,167.173 80.1712,213.34 44.493,38.324 98.8269,57.6682 162.988,57.6682 71.3428,0 129.672,-23.3399 174.84,-70.1683 45.33,-46.6664 67.833,-111.165 67.833,-193.51 0,-66.8341 -10.0028,-119.332 -29.995,-157.494 -20.0057,-38.3375 -49.1772,-67.995 -87.3392,-89.1616 -38.3375,-21.1666 -79.9957,-31.6689 -125.339,-31.6689 -72.4902,0 -131.157,23.1645 -175.988,69.8309 -44.844,46.5044 -67.1715,113.5 -67.1715,201.164zm90.336 0c0,-66.4966 14.498,-116.16 43.4941,-149.165 28.9961,-33.1673 65.4976,-49.6632 109.329,-49.6632 43.6696,0 80.0092,16.6579 109.005,49.8252 28.8341,33.1673 43.3321,83.8429 43.3321,151.838 0,64.1612 -14.498,112.839 -43.6696,145.831 -29.1581,33.0053 -65.3222,49.5012 -108.668,49.5012 -43.8316,0 -80.3332,-16.4959 -109.329,-49.3257 -28.9961,-32.8433 -43.4941,-82.5065 -43.4941,-148.841z" id="path3440"/>
      </glyph>
   <glyph unicode="d" horiz-adv-x="556" id="glyph3442">
        <path d="M402.327 0l0 65.4976c-32.8298,-51.4991 -81.1566,-77.1609 -144.994,-77.1609 -41.3343,0 -79.3342,11.3257 -114,34.1662 -34.6657,22.665 -61.5019,54.4959 -80.6706,95.4926 -18.9932,40.8348 -28.4966,87.6767 -28.4966,140.836 0,51.6746 8.66642,98.6649 25.8373,140.836 17.3328,42.1712 43.1566,74.5015 77.6603,96.8291 34.5037,22.503 73.1651,33.8422 115.836,33.8422 31.1694,0 59.0046,-6.66856 83.33,-19.8437 24.5009,-13.1616 44.3311,-30.3325 59.666,-51.4991l0 256.834 87.3392 0 0 -715.83 -81.5076 0zm-277.825 258.832c0,-66.4966 13.9986,-116.16 41.9957,-149.003 27.9971,-32.8298 61.0024,-49.3257 99.1644,-49.3257 38.3375,0 71.0053,15.8344 97.8415,47.1659 26.8362,31.3314 40.3353,79.3342 40.3353,143.833 0,70.9918 -13.6746,123.004 -41.0103,156.171 -27.3222,33.3293 -60.9889,49.8252 -101.162,49.8252 -38.9989,0 -71.6667,-15.9964 -97.828,-47.8273 -26.1748,-31.8309 -39.3364,-82.169 -39.3364,-150.839z" id="path3444"/>
      </glyph>
   <glyph unicode="n" horiz-adv-x="556" id="glyph3446">
        <path d="M65.9971 0l0 518.501 78.9967 0 0 -73.6646c38.1755,56.9932 93.1708,85.5033 165,85.5033 31.3449,0 60.0035,-5.66962 86.1783,-16.8334 26.3232,-11.3392 45.8295,-25.9993 58.8291,-44.3446 13.1616,-18.1563 22.1655,-39.8224 27.4977,-64.8227 3.17229,-16.3339 4.83268,-44.844 4.83268,-85.5033l0 -318.835 -88.0006 0 0 315.501c0,35.6646 -3.33428,62.5008 -10.1648,80.3332 -6.83055,17.6703 -18.9932,31.8309 -36.3261,42.3332 -17.5083,10.6643 -37.838,15.9964 -61.3399,15.9964 -37.5005,0 -69.6689,-12.0007 -97.0045,-35.6646 -27.1602,-23.8259 -40.6593,-68.8319 -40.6593,-135.329l0 -283.171 -87.8387 0z" id="path3448"/>
      </glyph>
   <glyph unicode="a" horiz-adv-x="556" id="glyph3450">
        <path d="M404.339 63.9992c-32.6678,-27.6597 -63.9992,-47.1659 -94.0077,-58.6671 -30.1705,-11.3257 -62.5008,-16.9954 -96.9911,-16.9954 -57.0067,0 -100.676,13.8366 -131.346,41.6582 -30.4945,27.8351 -45.8295,63.4998 -45.8295,106.67 0,25.4998 5.66962,48.6643 17.3328,69.6689 11.5012,21.0046 26.6742,37.838 45.33,50.5001 18.8447,12.6622 39.8359,22.3275 63.3378,28.8341 17.1709,4.4952 43.1701,9.0039 77.9978,13.1616 71.0053,8.50443 123.341,18.5073 156.833,30.3325 0.337478,12.0007 0.499467,19.6682 0.499467,22.8405 0,35.8266 -8.32895,61.1644 -25.0003,75.6625 -22.3275,20.0057 -55.8323,29.833 -99.9879,29.833 -41.3343,0 -71.8422,-7.16802 -91.6724,-21.6661 -19.6682,-14.498 -34.1662,-40.1598 -43.6696,-76.9989l-85.8273 11.8387c7.82948,36.6636 20.6671,66.4966 38.4994,88.9996 17.8323,22.665 43.8316,40.1598 77.6603,52.3225 33.8422,12.1762 73.0031,18.3453 117.672,18.3453 44.3311,0 80.1712,-5.34564 107.831,-15.6725 27.6732,-10.5023 48.0028,-23.5019 61.1644,-39.3364 12.9996,-15.8344 22.0035,-35.6646 27.3357,-59.828 2.83481,-14.9975 4.33321,-41.9957 4.33321,-81.0081l0 -117.159c0,-81.8316 1.83588,-133.506 5.66962,-154.997 3.65826,-21.6661 11.1638,-42.5087 22.1655,-62.3389l-91.8344 0c-9.0039,18.1698 -14.9975,39.4984 -17.4948,63.9992zm-7.34351 196.331c-31.9929,-13.1616 -79.8337,-24.1634 -143.495,-33.3293 -36.1641,-5.17016 -61.8394,-11.0018 -76.6614,-17.4948 -15.011,-6.50657 -26.6742,-16.0099 -34.6657,-28.6721 -8.16696,-12.5002 -12.3382,-26.3367 -12.3382,-41.6717 0,-23.5019 9.0039,-42.9946 26.6607,-58.6671 17.6703,-15.497 43.6696,-23.3264 77.8358,-23.3264 33.8422,0 63.9992,7.33001 90.336,22.1655 26.3367,14.8355 45.8295,35.1652 58.1676,60.827 9.50337,19.8437 14.1606,49.1772 14.1606,87.8387l0 32.3304z" id="path3452"/>
      </glyph>
   <glyph unicode="c" horiz-adv-x="500" id="glyph3454">
        <path d="M404.339 190l86.3268 -11.3392c-9.32788,-59.4905 -33.5048,-106.157 -72.5037,-139.824 -38.8234,-33.6668 -86.6642,-50.5001 -143.333,-50.5001 -70.8298,0 -127.998,23.1645 -170.993,69.4934 -43.1701,46.3424 -64.8362,112.839 -64.8362,199.503 0,55.9943 9.32788,104.996 27.8351,147.005 18.6693,41.9957 46.8284,73.4891 84.8284,94.4937 37.838,21.0046 79.1722,31.5069 123.665,31.5069 56.3453,0 102.512,-14.336 138.177,-42.8327 35.8266,-28.5101 58.8291,-68.8454 68.9939,-121.343l-85.5033 -13.1616c-8.16696,34.8277 -22.4895,61.0024 -43.1566,78.6593 -20.6671,17.5083 -45.6675,26.3367 -75.001,26.3367 -44.3311,0 -80.3332,-15.8344 -108.006,-47.6653 -27.6597,-31.6689 -41.4962,-81.8316 -41.4962,-150.501 0,-69.6689 13.3371,-120.331 40.1598,-152 26.6742,-31.4934 61.5019,-47.3279 104.51,-47.3279 34.4902,0 63.1623,10.6643 86.3268,31.8309 23.1645,21.1666 37.838,53.6724 44.0071,97.666z" id="path3456"/>
      </glyph>
   <glyph unicode="i" horiz-adv-x="222" id="glyph3458">
        <path d="M66.3346 614.668l0 101.162 88.0006 0 0 -101.162 -88.0006 0zm0 -614.668l0 518.501 88.0006 0 0 -518.501 -88.0006 0z" id="path3460"/>
      </glyph>
   <glyph unicode="f" horiz-adv-x="277" id="glyph3462">
        <path d="M86.8397 0l0 450.168 -77.5118 0 0 68.3325 77.5118 0 0 55.1708c0,34.8277 3.15879,60.827 9.32788,77.6603 8.50443,22.8405 23.3264,41.3343 44.6685,55.5083 21.3286,14.1606 51.1616,21.1666 89.661,21.1666 24.6629,0 51.9985,-2.83481 82.007,-8.84191l-13.1751 -76.6614c-18.1563,3.33428 -35.4891,4.99467 -51.8231,4.99467 -26.6742,0 -45.5055,-5.66962 -56.5072,-17.1709 -11.1638,-11.3257 -16.6714,-32.6543 -16.6714,-63.9992l0 -47.8273 101 0 0 -68.3325 -101 0 0 -450.168 -87.4877 0z" id="path3464"/>
      </glyph>
   <glyph unicode="s" horiz-adv-x="500" id="glyph3466">
        <path d="M30.8319 154.835l86.8397 13.6611c4.83268,-34.8277 18.4938,-61.5019 40.8348,-80.1577 22.1655,-18.5073 53.3215,-27.8351 93.4948,-27.8351 40.3353,0 70.3303,8.32895 89.8365,24.6629 19.4927,16.4959 29.3335,35.8401 29.3335,57.8302 0,20.0057 -8.66642,35.5026 -25.9993,47.0039 -12.0007,7.82948 -42.0092,17.6703 -89.8365,29.671 -64.3367,16.3339 -109.167,30.3325 -134.006,42.3332 -24.8248,11.8252 -43.8316,28.3346 -56.6692,49.3257 -12.8241,21.0046 -19.3307,44.1691 -19.3307,69.5069 0,23.1645 5.33215,44.493 16.0099,64.1612 10.4888,19.8302 24.9868,36.1641 43.1566,49.1637 13.6746,10.0028 32.3304,18.6693 55.8323,25.6753 23.6774,6.99253 49.0017,10.5023 75.9999,10.5023 40.6728,0 76.3374,-6.0071 107.169,-17.6703 30.8319,-11.6632 53.4969,-27.4977 68.1705,-47.5033 14.66,-20.1677 24.6629,-46.8284 30.1705,-80.3332l-85.8408 -11.8387c-3.99573,26.6742 -15.335,47.5033 -34.0042,62.5008 -18.6558,15.011 -45.1545,22.503 -79.3207,22.503 -40.3353,0 -69.1694,-6.66856 -86.3403,-19.9922 -17.3328,-13.3371 -25.9993,-29.0096 -25.9993,-46.8419 0,-11.5012 3.67176,-21.6661 10.8263,-30.8319 7.16802,-9.50337 18.3453,-17.1709 33.6668,-23.5019 8.84191,-3.15879 34.6792,-10.6643 77.6738,-22.3275 62.1634,-16.6714 105.495,-30.1705 129.996,-40.8348 24.6629,-10.5023 44.0071,-25.9993 58.0056,-46.1669 13.9986,-20.1677 20.9911,-45.168 20.9911,-75.163 0,-29.3335 -8.66642,-56.8312 -25.6618,-82.844 -17.1709,-25.8238 -41.8337,-45.8295 -74.0021,-59.99 -32.1684,-14.1741 -68.6699,-21.1666 -109.329,-21.1666 -67.4955,0 -118.833,13.9986 -154.173,41.9957 -35.3272,27.9971 -57.8302,69.5069 -67.4955,124.502z" id="path3468"/>
      </glyph>
   <glyph unicode="t" horiz-adv-x="277" id="glyph3470">
        <path d="M257.833 78.6728l12.6622 -77.6738c-24.6629,-5.17016 -46.8284,-7.82948 -66.3346,-7.82948 -31.9929,0 -56.6557,4.99467 -74.3261,15.1595 -17.4948,10.0028 -29.833,23.3399 -37.001,39.8359 -7.16802,16.3339 -10.8398,50.9996 -10.8398,103.673l0 298.33 -64.4987 0 0 68.3325 64.4987 0 0 128.498 87.5012 52.6735 0 -181.171 88.3381 0 0 -68.3325 -88.3381 0 0 -303.163c0,-25.1758 1.5119,-41.1723 4.5087,-48.3403 3.15879,-7.16802 8.16696,-12.8376 15.1595,-17.1709 7.00603,-4.15772 17.0089,-6.33108 30.0085,-6.33108 9.82735,0 22.665,1.17442 38.6614,3.50977z" id="path3472"/>
      </glyph>
   <glyph unicode="u" horiz-adv-x="556" id="glyph3474">
        <path d="M405.837 0l0 76.1619c-40.4973,-58.6671 -95.3307,-87.8252 -164.676,-87.8252 -30.4945,0 -59.1666,5.83161 -85.6653,17.4948 -26.4987,11.6632 -46.1669,26.4987 -58.9911,44.1691 -12.9996,17.8323 -22.0035,39.4984 -27.1737,65.1602 -3.49627,17.3328 -5.33215,44.6685 -5.33215,82.169l0 321.171 87.8387 0 0 -287.504c0,-45.9914 1.82238,-76.8234 5.33215,-92.8333 5.66962,-23.1645 17.3328,-41.1588 35.1652,-54.4959 17.9943,-13.1616 40.1598,-19.6682 66.4966,-19.6682 26.3367,0 50.9996,6.66856 74.1641,20.1677 23.1645,13.4991 39.4984,32.0064 49.0017,55.1708 9.66536,23.3264 14.498,57.1687 14.498,101.324l0 277.839 87.8387 0 0 -518.501 -78.4973 0z" id="path3476"/>
      </glyph>
   <glyph unicode="r" horiz-adv-x="332" id="glyph3478">
        <path d="M64.9982 0l0 518.501 78.9967 0 0 -78.4973c20.1677,36.6636 38.8369,61.0024 56.0078,72.6657 16.9954,11.6632 35.8266,17.6703 56.3318,17.6703 29.671,0 59.666,-9.50337 90.336,-28.3346l-30.3325 -81.6696c-21.3421,12.8376 -42.8327,19.1687 -64.3367,19.1687 -19.3307,0 -36.5016,-5.83161 -51.8366,-17.3328 -15.335,-11.6767 -26.1613,-27.6732 -32.6678,-48.1648 -9.82735,-31.1694 -14.66,-65.3357 -14.66,-102.512l0 -271.494 -87.8387 0z" id="path3480"/>
      </glyph>
  </font>
</defs>
</svg>
